Login





Register | Lost your password?

Categories

Meeting Evil (2012) HDRiP-AC3-XViD-SiC

eD2k Links
Help |              
Meeting.Evil.2012.HDRiP.AC3-5.1.XviD-SiC.avi 1.37GB
1.37GB
(1Files)


Meeting Evil (2012) HDRiP-AC3-XViD-SiC

djtdrt Meeting Evil (2012) HDRiP AC3 XViD SiC

Genre : Crime / Drama / Mystery / Thriller

Plot : Follows disillusioned young family man John as a mysterious stranger, Richie takes him on a murder-fueled ride that transforms the weak-willed John into a desperate hero willing to go to any length to protect his family.

General
Complete name: Meeting.Evil.2012.ReadNfo.HDRiP.AC3-5.1.XviD-SiC.avi
Format: AVI
Format/Info: Audio Video Interleave
File size: 1.37 GiB
Duration: 1h 29mn
Overall bit rate: 2 198 Kbps

Video
ID: 0
Format: MPEG-4 Visual
Format profile: Advanced Simple@L5
Format settings, BVOP: 2
Format settings, QPel: No
Format settings, GMC: No warppoints
Format settings, Matrix: Default (H.263)
Muxing mode: Packed bitstream
Codec ID: XVID
Codec ID/Hint: XviD
Duration: 1h 29mn
Bit rate: 1 806 Kbps
Width: 720 pixels
Height: 400 pixels
Display aspect ratio: 16:9
Frame rate: 23.976 fps
Color space: YUV
Chroma subsampling: 4:2:0
Bit depth: 8 bits
Scan type: Progressive
Compression mode: Lossy
Bits/(Pixel*Frame): 0.262
Stream size: 1.12 GiB (82%)
Writing library: XviD 1.1.2 (UTC 2006-11-01)

Audio
ID: 1
Format: AC-3
Format/Info: Audio Coding 3
Mode extension: CM (complete main)
Codec ID: 2000
Duration: 1h 29mn
Bit rate mode: Constant
Bit rate: 384 Kbps
Channel(s): 6 channels
Channel positions: Front: L C R, Side: L R, LFE
Sampling rate: 48.0 KHz
Bit depth: 16 bits
Compression mode: Lossy
Stream size: 245 MiB (17%)
Alignment: Aligned on interleaves
Interleave, duration: 64 ms (1.53 video frames)
Interleave, preload duration: 192 ms
Title: meetingevil

Source: 720p wmv Digital VOD Rental – Our Own

http://www.imdb.com/title/tt1810697/

vlcsnap2012033108h01m05 Meeting Evil (2012) HDRiP AC3 XViD SiC

vlcsnap2012033108h01m59 Meeting Evil (2012) HDRiP AC3 XViD SiC

vlcsnap2012033108h02m09 Meeting Evil (2012) HDRiP AC3 XViD SiC

vlcsnap2012033108h01m29 Meeting Evil (2012) HDRiP AC3 XViD SiC

ed2k: Meeting.Evil.2012.HDRiP.AC3-5.1.XviD-SiC.avi  [1.37 Gb]

========================================
Meeting Evil (2012) HDRiP-AC3-XViD-SiC Fast download
Alternative download: This download might also be available on Usenet. fast, safe and anonymous download up to 150GB from usenext 4free.


Meeting Evil (2012) HDRiP-AC3-XViD-SiC
Meeting Evil 2012 HDRiP AC3 XViD SiC Alternative Download Search

1 comment to Meeting Evil (2012) HDRiP-AC3-XViD-SiC

You must be logged in to post a comment.

contact us content remove