Login





Register | Lost your password?

Categories

It Bites – Calling All the Heroes: The Best of It Bites (2003)

eD2k Links
Help |              
It Bites -2003- Calling All the Heroes - The Best of It Bites (EMI Gold) (eac-scans).zip.wv 523.6MB
523.6MB
(1Files)


61DQ34Y2G7L. SL500 AA240  It Bites   Calling All the Heroes: The Best of It Bites (2003)

Artist: It Bites
Album: Calling All the Heroes: The Best of It Bites
Released: 2003
Source: EMI Records Ltd. (7243 5 95575 2 6)
Genre: Hard Rock, Pop/Rock, Crossover Prog
Format: Playable ZIP (523 MB) ~ WavPack (normal), CUE, LOG, scans (300 ppi)

Amazon Review: It Bites were a progressive rock band from an age when the genre was in the doldrums.
In the late 80s, Virgin Records seemed to know only one way to market a new band of 20-something males, which was as a pop group, and, as the liner notes of this album state, this conflicted with It Bites’ desire to be a serious rock band, which led to the bands eventual downfall. They have, however, remained a cult favourite with rock fans, and still have a following some 15 years after the release of their final album.
Like most "Best Of" compilations, this album concentrates on the singles and the best of the album tracks, and is presented in no particular order. As befits Virgin’s marketing of the band, the singles were generally edited down versions of the album tracks, with the full length versions being left for the 12-inches. Thus we get 7" edits of "Calling All The Heroes", "Old Man And The Angel" and so on, instead of the longer rambling album versions.
As It Bites were one of those bands who released non-album tracks as B-sides as a matter of course, it’s a pity that so few of them made the tracklisting here – the only exceptions being "Strange But True", presumably as it was the B-side to "Calling All The Heroes", their biggest hit, and "Vampires" which was on the flip of "Still Too Young". The live version of "Never Go To Heaven" was the B-Side of "Midnight", and it is a superb performance – however, it is the original album version that is included here, despite the tracklisting. Also included is the album version of "Black December" rather than the earlier alternative version from the "Whole New World" single of two years previously.
Overall then, this is an excellent anthology of an excellent band, but lazily put together.

Track List:
01. Still Too Young to Remember
02. Calling All the Heroes
03. Strange but True
04. All in Red
05. Kiss Like Judas
06. Murder of the Planet Earth
07. Midnight
08. Sister Sarah
09. Old Man and the Angel
10. Underneath Your Pillow
11. Screaming on the Beaches
12. Whole New World
13. Yellow Christian
14. You’ll Never Go to Heaven
15. Vampires
16. Black December

Exact Audio Copy V0.99 prebeta 5 from 4. May 2009

EAC extraction logfile from 1. August 2009, 20:08

It Bites / Calling All the Heroes: The Best of It Bites

Used drive  : PLEXTOR CD-R   PREMIUM2   Adapter: 1  ID: 0

Read mode               : Secure
Utilize accurate stream : Yes
Defeat audio cache      : Yes
Make use of C2 pointers : No

Read offset correction                      : 30
Overread into Lead-In and Lead-Out          : Yes
Fill up missing offset samples with silence : Yes
Delete leading and trailing silent blocks   : No
Null samples used in CRC calculations       : Yes
Used interface                              : Native Win32 interface for Win NT & 2000

Used output format : Internal WAV Routines
Sample format      : 44.100 Hz; 16 Bit; Stereo

TOC of the extracted CD

     Track |   Start  |  Length  | Start sector | End sector
    ———————————————————
        1  |  0:00.00 |  3:56.50 |         0    |    17749   
        2  |  3:56.50 |  4:03.57 |     17750    |    36031   
        3  |  8:00.32 |  4:05.38 |     36032    |    54444   
        4  | 12:05.70 |  3:32.67 |     54445    |    70411   
        5  | 15:38.62 |  4:10.28 |     70412    |    89189   
        6  | 19:49.15 |  3:48.32 |     89190    |   106321   
        7  | 23:37.47 |  4:01.30 |    106322    |   124426   
        8  | 27:39.02 |  4:18.30 |    124427    |   143806   
        9  | 31:57.32 |  3:45.58 |    143807    |   160739   
       10  | 35:43.15 |  4:25.45 |    160740    |   180659   
       11  | 40:08.60 |  3:47.00 |    180660    |   197684   
       12  | 43:55.60 |  3:55.55 |    197685    |   215364   
       13  | 47:51.40 |  6:31.42 |    215365    |   244731   
       14  | 54:23.07 |  7:14.08 |    244732    |   277289   
       15  | 61:37.15 |  4:41.45 |    277290    |   298409   
       16  | 66:18.60 |  3:50.15 |    298410    |   315674   
       17  | 72:41.00 |  6:00.00 |    327075    |   354074   

Range status and errors

Selected range

     Filename C:\DAE\It Bites – Calling All the Heroes ~ The Best of It Bites (EMI Gold)\Calling All the Heroes – The Best of It Bites.wav

     Peak level 99.7 %
     Range quality 100.0 %
     Copy CRC 43FBAE7A
     Copy OK

No errors occurred

AccurateRip summary

Track  1  not present in database
Track  2  not present in database
Track  3  not present in database
Track  4  not present in database
Track  5  not present in database
Track  6  not present in database
Track  7  not present in database
Track  8  not present in database
Track  9  not present in database
Track 10  not present in database
Track 11  not present in database
Track 12  not present in database
Track 13  not present in database
Track 14  not present in database
Track 15  not present in database
Track 16  not present in database

None of the tracks are present in the AccurateRip database

End of status report

The .zip.wv file can be played directly in foobar, the same way as a tagged WavPack file (no unpacking required).
Any ZIP utility can be used to open/extract the archive contents.

ed2k: It Bites -2003- Calling All the Heroes – The Best of It Bites (EMI Gold) (eac-scans).zip.wv  [523.60 Mb]

========================================
It Bites – Calling All the Heroes: The Best of It Bites (2003) Fast download
Alternative download: This download might also be available on Usenet. fast, safe and anonymous download up to 150GB from usenext 4free.


It Bites – Calling All the Heroes: The Best of It Bites (2003)
It Bites – Calling All the Heroes: The Best of It Bites 2003 Alternative Download Search

You must be logged in to post a comment.

contact us content remove