Login





Register | Lost your password?

Categories

2 Unlimited – Hits Unlimited

eD2k Links
Help |              
2_Unlimited-Hits_Unlimited-1995-(EAC-FLAC-CUE-LOG-COVERS).rar 510.63MB
510.63MB
(1Files)


410PNQ4HH2L. AA240  2 Unlimited   Hits Unlimited

Genre : Eurodance
Date Release : 1995
Quality : EAC-FLAC-CUE-LOG-COVERS

Description:
I remember back in 1993 when the rave style of dance music took the world and the U.S. by storm. This style of music is still popular now. I love this style of music. For superior dance music, look no further than "Hits Unlimited". Anita’s vocals are powerful & very beautiful and Ray’s rapping sound real good. I love all the tracks on this cd. The music of 2 Unlimited remains ever popular because it is unique and great. "HIT UNLIMITED" is a must for anyone into good music.
`

Tracklist:
01. Do What’s Good For Me [3:51]
02. No Limit [3:33]
03. Get Ready For This [3:44]
04. Twilight Zone [4:13]
05. No One [3:29]
06. Jump For Joy [3:45]
07. Tribal Dance [3:42]
08. The Magic Friend [3:47]
09. Workaholic [3:36]
10. Let The Beat Control Your Body [3:41]
11. Nothing Like The Rain [4:02]
12. Spread your Love [4:45]
13. The Real Thing [3:42]
14. Here I Go [3:19]
15. Maximum Overdrive [3:43]
16. Faces [3:34]
17. Radio Megamix – Bonus Track [6:06]

ed2k: 2_Unlimited-Hits_Unlimited-1995-(EAC-FLAC-CUE-LOG-COVERS).rar  [510.63 Mb]

EAC extraction logfile from 15. July 2007, 0:22 for CD
2 Unlimited / Hits Unlimited

Used drive : HL-DT-STDVDRRW GSA-H30L Adapter: 0 ID: 1
Read mode : Secure with NO C2, accurate stream, disable cache
Read offset correction : 102
Overread into Lead-In and Lead-Out : Yes

Used output format : C:\flac-1.1.4-win\bin\flac.exe (User Defined Encoder)
320 kBit/s
Additional command line options : -6 -V -T "artist=%a" -T "title=%t" -T "album=%g" -T "date=%y" -T "tracknumber=%n" -T "genre=%m" -T comment="%e" -T "comment=EAC (Secure Mode)" %s

Other options :
Fill up missing offset samples with silence : Yes
Delete leading and trailing silent blocks : No
Installed external ASPI interface

Track 1
Filename C:\My Music Box.;)\(01)-Do What’s Good For Me-2 Unlimited-1995.wav

Pre-gap length 0:00:02.00

Peak level 100.0 %
Track quality 99.9 %
Test CRC 1D8FB4DB
Copy CRC 1D8FB4DB
Copy OK

Track 2
Filename C:\My Music Box.;)\(02)-No Limit-2 Unlimited-1995.wav

Pre-gap length 0:00:01.05

Peak level 100.0 %
Track quality 100.0 %
Test CRC 4A1024FB
Copy CRC 4A1024FB
Copy OK

Track 3
Filename C:\My Music Box.;)\(03)-Get Ready For This-2 Unlimited-1995.wav

Pre-gap length 0:00:01.23

Peak level 100.0 %
Track quality 99.9 %
Test CRC 9ABA10B2
Copy CRC 9ABA10B2
Copy OK

Track 4
Filename C:\My Music Box.;)\(04)-Twilight Zone-2 Unlimited-1995.wav

Pre-gap length 0:00:01.05

Peak level 99.4 %
Track quality 100.0 %
Test CRC D43F046B
Copy CRC D43F046B
Copy OK

Track 5
Filename C:\My Music Box.;)\(05)-No One-2 Unlimited-1995.wav

Pre-gap length 0:00:01.13

Peak level 99.6 %
Track quality 100.0 %
Test CRC 21AF10A1
Copy CRC 21AF10A1
Copy OK

Track 6
Filename C:\My Music Box.;)\(06)-Jump For Joy-2 Unlimited-1995.wav

Pre-gap length 0:00:01.10

Peak level 100.0 %
Track quality 100.0 %
Test CRC 645668C3
Copy CRC 645668C3
Copy OK

Track 7
Filename C:\My Music Box.;)\(07)-Tribal Dance-2 Unlimited-1995.wav

Pre-gap length 0:00:01.15

Peak level 100.0 %
Track quality 100.0 %
Test CRC 1631ECEA
Copy CRC 1631ECEA
Copy OK

Track 8
Filename C:\My Music Box.;)\(08)-The Magic Friend-2 Unlimited-1995.wav

Pre-gap length 0:00:01.02

Peak level 99.6 %
Track quality 100.0 %
Test CRC 1FEFB7E3
Copy CRC 1FEFB7E3
Copy OK

Track 9
Filename C:\My Music Box.;)\(09)-Workaholic-2 Unlimited-1995.wav

Pre-gap length 0:00:01.20

Peak level 100.0 %
Track quality 100.0 %
Test CRC 96CE526F
Copy CRC 96CE526F
Copy OK

Track 10
Filename C:\My Music Box.;)\(10)-Let The Beat Control Your Body-2 Unlimited-1995.wav

Pre-gap length 0:00:00.62

Peak level 100.0 %
Track quality 100.0 %
Test CRC 9CBF4F31
Copy CRC 9CBF4F31
Copy OK

Track 11
Filename C:\My Music Box.;)\(11)-Nothing Like The Rain-2 Unlimited-1995.wav

Pre-gap length 0:00:01.23

Peak level 100.0 %
Track quality 100.0 %
Test CRC 898DA343
Copy CRC 898DA343
Copy OK

Track 12
Filename C:\My Music Box.;)\(12)-Spread your Love-2 Unlimited-1995.wav

Pre-gap length 0:00:00.55

Peak level 100.0 %
Track quality 100.0 %
Test CRC 93B86C85
Copy CRC 93B86C85
Copy OK

Track 13
Filename C:\My Music Box.;)\(13)-The Real Thing-2 Unlimited-1995.wav

Pre-gap length 0:00:01.05

Peak level 99.4 %
Track quality 100.0 %
Test CRC DDCD451A
Copy CRC DDCD451A
Copy OK

Track 14
Filename C:\My Music Box.;)\(14)-Here I Go-2 Unlimited-1995.wav

Pre-gap length 0:00:01.07

Peak level 98.3 %
Track quality 100.0 %
Test CRC 1D6619C5
Copy CRC 1D6619C5
Copy OK

Track 15
Filename C:\My Music Box.;)\(15)-Maximum Overdrive-2 Unlimited-1995.wav

Pre-gap length 0:00:01.15

Peak level 98.6 %
Track quality 100.0 %
Test CRC 498200A0
Copy CRC 498200A0
Copy OK

Track 16
Filename C:\My Music Box.;)\(16)-Faces-2 Unlimited-1995.wav

Pre-gap length 0:00:01.00

Peak level 100.0 %
Track quality 100.0 %
Test CRC 62613835
Copy CRC 62613835
Copy OK

Track 17
Filename C:\My Music Box.;)\(17)-Radio Megamix – Bonus Track-2 Unlimited-1995.wav

Pre-gap length 0:00:01.11

Peak level 100.0 %
Track quality 100.0 %
Test CRC FF1D838F
Copy CRC FF1D838F
Copy OK

No errors occured

End of status report

========================================
2 Unlimited – Hits Unlimited Fast download
Alternative download: This download might also be available on Usenet. fast, safe and anonymous download up to 150GB from usenext 4free.



2 Unlimited – Hits Unlimited Alternative Download Search

You must be logged in to post a comment.

contact us content remove