Login





Register | Lost your password?

Categories

[Español] Mojave.Moon.(1996).(Español.Dubbed).FS.DVDRip.DivX5

eD2k Links
Help |              
Mojave.Moon.(1996).(Español.Dubbed).FS.DVDRip.DivX5.avi 701.08MB
701.08MB
(1Files)


Mojave Moon (1996)

9737 [Español] Mojave.Moon.(1996).(Español.Dubbed).FS.DVDRip.DivX5

General
Complete name                    : D:\Emule\Mojave.Moon.(1996).(Español.Dubbed).FS.DVDRip.DivX5.avi
Format                           : AVI
Format/Info                      : Audio Video Interleave
File size                        : 701 MiB
Duration                         : 1h 31mn
Overall bit rate                 : 1 071 Kbps
Writing application              : VirtualDubMod 1.5.10.1 (build 2366/release)
Writing library                  : VirtualDubMod build 2366/release

Video
ID                               : 0
Format                           : MPEG-4 Visual
Format profile                   : Advanced Simple@L5
Format settings, BVOP            : Yes
Format settings, QPel            : No
Format settings, GMC             : No warppoints
Format settings, Matrix          : Default (H.263)
Codec ID                         : DX50
Codec ID/Hint                    : DivX 5
Duration                         : 1h 31mn
Bit rate                         : 933 Kbps
Width                            : 476 pixels
Height                           : 356 pixels
Display aspect ratio             : 4/3
Frame rate                       : 25.000 fps
Resolution                       : 24 bits
Colorimetry                      : 4:2:0
Scan type                        : Progressive
Bits/(Pixel*Frame)               : 0.220
Stream size                      : 611 MiB (87%)
Writing library                  : XviD 1.0.3 (UTC 2004-12-20)

Audio
ID                               : 1
Format                           : MPEG Audio
Format version                   : Version 1
Format profile                   : Layer 3
Codec ID                         : 55
Codec ID/Hint                    : MP3
Duration                         : 1h 31mn
Bit rate mode                    : Constant
Bit rate                         : 128 Kbps
Channel(s)                       : 2 channels
Sampling rate                    : 48.0 KHz
Resolution                       : 16 bits
Stream size                      : 83.8 MiB (12%)
Alignment                        : Aligned on interleaves
Interleave, duration             : 40 ms (1.00 video frame)
Interleave, preload duration     : 504 ms

MojaveMoon01287613 48 54 [Español] Mojave.Moon.(1996).(Español.Dubbed).FS.DVDRip.DivX5

========================================
[Español] Mojave.Moon.(1996).(Español.Dubbed).FS.DVDRip.DivX5 Fast download
Alternative download: This download might also be available on Usenet. fast, safe and anonymous download up to 150GB from usenext 4free.


[Español] Mojave.Moon.(1996).(Español.Dubbed).FS.DVDRip.DivX5
Español Mojave.Moon. 1996 . Español.Dubbed .FS.DVDRip.DivX5 Alternative Download Search

You must be logged in to post a comment.

contact us content remove