Login





Register | Lost your password?

Categories

Hey.Hey.Its.Esther.Blueburger.(2008).DVDRip.XviD-M14CHO

eD2k Links
Help |              
Hey.Hey.Its.Esther.Blueburger.2008.DVDRiP.XViD-M14CHO.avi 698.68MB
698.68MB
(1Files)


Hey Hey Its Esther Blueburger (2008) DVDRiP-XViD-M14CHO

hey hey it s esther blueburger post Hey.Hey.Its.Esther.Blueburger.(2008).DVDRip.XviD M14CHO

http://www.imdb.com/title/tt0469099/

Quote:Genre : Comedy / Drama

Tagline : Sometimes to fit in you need to stand out.

Plot : A coming-of-age story about a 13-year-old girl trying to fit into both a posh private school and an ordinary public school.

General
Complete name                    : E:\Emule\Hey.Hey.Its.Esther.Blueburger.2008.DVDRiP.XViD-M14CHO.[sharethefiles.com].avi
Format                           : AVI
Format/Info                      : Audio Video Interleave
File size                        : 699 MiB
Duration                         : 1h 33mn
Overall bit rate                 : 1 047 Kbps
Writing application              : VirtualDubMod 1.5.10.2 (build 2540/release)
Writing library                  : VirtualDubMod build 2540/release

Video
Format                           : MPEG-4 Visual
Format profile                   : Streaming Video@L1
Format settings, BVOP            : Yes
Format settings, QPel            : No
Format settings, GMC             : No warppoints
Format settings, Matrix          : Default
Muxing mode                      : Packed bitstream
Codec ID                         : XVID
Codec ID/Hint                    : XviD
Duration                         : 1h 33mn
Bit rate                         : 908 Kbps
Width                            : 624 pixels
Height                           : 352 pixels
Display aspect ratio             : 16/9
Frame rate                       : 25.000 fps
Resolution                       : 24 bits
Colorimetry                      : 4:2:0
Scan type                        : Progressive
Bits/(Pixel*Frame)               : 0.165
Stream size                      : 606 MiB (87%)
Writing library                  : XviD 1.1.2 (UTC 2006-11-01)

Audio
Format                           : MPEG Audio
Format version                   : Version 1
Format profile                   : Layer 3
Codec ID                         : 55
Codec ID/Hint                    : MP3
Duration                         : 1h 33mn
Bit rate mode                    : Variable
Bit rate                         : 125 Kbps
Nominal bit rate                 : 128 Kbps
Channel(s)                       : 2 channels
Sampling rate                    : 48.0 KHz
Resolution                       : 16 bits
Stream size                      : 83.7 MiB (12%)
Alignment                        : Aligned on interleaves
Interleave, duration             : 24 ms (0.60 video frame)
Interleave, preload duration     : 526 ms
Writing library                  : LAME3.90.
Encoding settings                : ABR

========================================
Hey.Hey.Its.Esther.Blueburger.(2008).DVDRip.XviD-M14CHO Fast download
Alternative download: This download might also be available on Usenet. fast, safe and anonymous download up to 150GB from usenext 4free.



Hey.Hey.Its.Esther.Blueburger. 2008 .DVDRip.XviD M14CHO Alternative Download Search

You must be logged in to post a comment.

contact us content remove