Login





Register | Lost your password?

Categories

Richie Hawtin – Concept 1: Thomas Brinkmann Variations (1998) [Electronic]

eD2k Links
Help |              
Ritchie Hawtin 1998 Concept 1 96VR (Variations by Thomas Brinkmann) (cue & log tagged) - ngz.ape 299.67MB
299.67MB
(1Files)


Richie Hawtin – Concept 1 96:VR (Variations by Thomas Brinkmann)

Wiki

e38246jrk9v Richie Hawtin   Concept 1: Thomas Brinkmann Variations (1998) [Electronic]

Year of release: 1998 / 2006 re-issue
Genre: Minimal techno/bass/experimental
Label: M_nus (CONCEPT 1VR)
Total time: 70:32
ED2k Link:

Ritchie Hawtin 1998 Concept 1 96VR (Variations by Thomas Brinkmann) (cue & log tagged) – ngz.ape  [299.67 Mb]

Review: Concept 1, composed by Richie Hawtin aka Plastikman, marked a yearlong correlation between musical development and the progression of time. The original series (1996) of 12 monthly twelve-inch singles comprised of 24 tracks, strictly limited to 2000 copies per release, was a timely musical emission of that moment. Before the compiled CD release of Concept 1 96:CD in February 1998, Thomas Brinkmann (Cologne, Germany) visited Windsor to play Hawtin some of his "Variations" of Concept 1. The results unfolded a new structure from the original material, exposing a new side of Hawtin’s compositions.

Explaining his custom system to produce the Concept 1 Variations, Brinkmann notes, "I used a self-made turntable with 30 kilo plate, and two SME 309 Tone Arms utilizing both Ortofon and Van den Hul moving-coil pickups." Using the original Concept 1 records on his two-arm turntable, Thomas found unheard dynamics within these recordings. Even the imperfections of the vinyl pressing process find new character within his Variations. "The interventions with the actual vinyl are few: I slowed down the speed of the record and used the left pickup (arm) for the left channel, and the right pickup (arm) for the right channel. I found out that the use of different pickup systems for both channels is important for the sound," Brinkmann adds. "It’s possible to hear a melodic displacement between the channels." Re-thinking the depth of sound, Thomas said, "I don’t believe in creativity, but in sensibility. We have to invent the things to make them visible or audible, even though they had been there before, only invisible and inaudible." Through his unique angle of attention, Thomas has allowed us to hear what he hears, something that was there but unheard until now. Summing up his technique, Thomas mentions, "With a little intervention and displacement of elements, the Concepts are sounding different. The same information they had before, but two times present. Like the idea of cloning and twins: still Richie’s DNA with a little mutation. A different groove." In the spirit of MINUS, Thomas has used an untraditional technique based on theories of alternative listening and experimentation to produce an image of difference. A scientific yet natural way of revealing the complexity of what was originally deemed minimal.

LOG:
EAC extraction logfile from 25. June 2007, 1:45 for CD
Ritchie Hawtin / Concept 1 96VR

Used drive  : _NEC    DVD_RW ND-1300A   Adapter: 1  ID: 0
Read mode   : Secure with NO C2, accurate stream, disable cache
Read offset correction : 48
Overread into Lead-In and Lead-Out : No

Used output format : Internal WAV Routines
                     44.100 Hz; 16 Bit; Stereo

Other options      :
    Fill up missing offset samples with silence : Yes
    Delete leading and trailing silent blocks : No
    Installed external ASPI interface

Range status and errors
Selected range
     Filename C:\blrs\Ritchie Hawtin – Concept 1 96VR.wav

     Peak level 96.5 %
     Range quality 100.0 %
     CRC 34A0E51C
     Copy OK

No errors occured

End of status report

CUE sheet:

REM GENRE Bass
REM DATE 1998
REM DISCID 6C108808
REM COMMENT "ExactAudioCopy v0.95b3"
PERFORMER "Ritchie Hawtin"
TITLE "Concept 1 96VR"
FILE "Ritchie Hawtin – Concept 1 96VR.ape" WAVE
  TRACK 01 AUDIO
    TITLE "AudioTrack 01"
    PERFORMER "Ritchie Hawtin"
    INDEX 01 00:00:00
  TRACK 02 AUDIO
    TITLE "AudioTrack 02"
    PERFORMER "Ritchie Hawtin"
    INDEX 01 10:38:27
  TRACK 03 AUDIO
    TITLE "AudioTrack 03"
    PERFORMER "Ritchie Hawtin"
    INDEX 01 19:24:05
  TRACK 04 AUDIO
    TITLE "AudioTrack 04"
    PERFORMER "Ritchie Hawtin"
    INDEX 01 25:33:00
  TRACK 05 AUDIO
    TITLE "AudioTrack 05"
    PERFORMER "Ritchie Hawtin"
    INDEX 01 37:06:37
  TRACK 06 AUDIO
    TITLE "AudioTrack 06"
    PERFORMER "Ritchie Hawtin"
    INDEX 01 44:09:25
  TRACK 07 AUDIO
    TITLE "AudioTrack 07"
    PERFORMER "Ritchie Hawtin"
    INDEX 01 51:34:55
  TRACK 08 AUDIO
    TITLE "AudioTrack 08"
    PERFORMER "Ritchie Hawtin"
    INDEX 01 61:05:37


========================================
Richie Hawtin – Concept 1: Thomas Brinkmann Variations (1998) [Electronic] Fast download
Alternative download: This download might also be available on Usenet. fast, safe and anonymous download up to 150GB from usenext 4free.


Richie Hawtin – Concept 1: Thomas Brinkmann Variations (1998) [Electronic]
Richie Hawtin – Concept 1: Thomas Brinkmann Variations 1998 Electronic Alternative Download Search

You must be logged in to post a comment.

contact us content remove