Login





Register | Lost your password?

Categories

Superman.IV.The.Quest.for.Peace.(1987).DVDRip.DivX3LM

eD2k Links
Help |              
Superman.IV.The.Quest.For.Peace.(1987).DVDRip.DivX3LM.avi 699.45MB
699.45MB
(1Files)


Superman IV: The Quest for Peace (1987)

Superman 4 The Quest For Peace cdco Superman.IV.The.Quest.for.Peace.(1987).DVDRip.DivX3LM

Quote:Superman does a lot in his newest adventure. Archvillain Lex Luthor, determined to make the world safe for nuclear arms merchants, creates a new being to challenge the Man of Steel: the radiation-charged Nuclear Man. The two super-powered foes clash in an explosive screen extranvaganza that sees Superman save the Statue of Liberty, repulse a volcanic eruption of Mount Etna, rebuild the demolished Great Wall of China and perform many more spetactular feats.

General
Complete name                    : Superman.IV.The.Quest.For.Peace.(1987).DVDRip.DivX3LM.avi
Format                           : AVI
Format/Info                      : Audio Video Interleave
File size                        : 699 MiB
Duration                         : 1h 33mn
Overall bit rate                 : 1044 Kbps

Video
Format                           : MPEG-4 Visual
Codec ID                         : DIV3
Codec ID/Hint                    : DivX 3 Low
Duration                         : 1h 29mn
Bit rate                         : 988 Kbps
Width                            : 720 pixels
Height                           : 304 pixels
Display aspect ratio             : 2.35
Frame rate                       : 23.976 fps
Resolution                       : 24 bits
Bits/(Pixel*Frame)               : 0.188
Stream size                      : 635 MiB (91%)
Title                            : DivX;-)3.2 975kbps 1kfps

Audio
Format                           : MPEG Audio
Format version                   : Version 1
Format profile                   : Layer 3
Codec ID                         : 55
Codec ID/Hint                    : MP3
Duration                         : 1h 33mn
Bit rate mode                    : Constant
Bit rate                         : 96.0 Kbps
Channel(s)                       : 2 channels
Sampling rate                    : 48.0 KHz
Resolution                       : 16 bits
Stream size                      : 61.7 MiB (9%)
Alignment                        : Split accross interleaves
Interleave, duration             : 959 ms (23.00 video frames)
Title                            : MP3 48kHz 96kbps

Superman.IV.The.Quest.For.Peace.(1987).DVDRip.DivX3LM.avi  [699.45 Mb]

supermanivthequestforpett4 Superman.IV.The.Quest.for.Peace.(1987).DVDRip.DivX3LM
supermanivthequestforpern8 Superman.IV.The.Quest.for.Peace.(1987).DVDRip.DivX3LM
supermanivthequestforpeuo1 Superman.IV.The.Quest.for.Peace.(1987).DVDRip.DivX3LM
supermanivthequestforpesk5 Superman.IV.The.Quest.for.Peace.(1987).DVDRip.DivX3LM
supermanivthequestforpekz1 Superman.IV.The.Quest.for.Peace.(1987).DVDRip.DivX3LM
supermanivthequestforpeml8 Superman.IV.The.Quest.for.Peace.(1987).DVDRip.DivX3LM
supermanivthequestforpeti5 Superman.IV.The.Quest.for.Peace.(1987).DVDRip.DivX3LM

Reason: Added poster, tech specs and snapshots. :-)


========================================
Superman.IV.The.Quest.for.Peace.(1987).DVDRip.DivX3LM Fast download
Alternative download: This download might also be available on Usenet. fast, safe and anonymous download up to 150GB from usenext 4free.



Superman.IV.The.Quest.for.Peace. 1987 .DVDRip.DivX3LM Alternative Download Search

You must be logged in to post a comment.

contact us content remove