Login





Register | Lost your password?

Categories

A.Hare.Grows.in.Manhattan.(1947).FS.DVDRip.DivX5

eD2k Links
Help |              
04-Hare.Grows.in.Manhattan(1947).avi 68.39MB
68.39MB
(1Files)


murslooneytunesgoldenco A.Hare.Grows.in.Manhattan.(1947).FS.DVDRip.DivX5

i3004 04 hare.grows.in.manhattan 1947 . sharethefiles.com 001699 11 22 50  A.Hare.Grows.in.Manhattan.(1947).FS.DVDRip.DivX5
i3005 04 hare.grows.in.manhattan 1947 . sharethefiles.com 006678 11 22 51  A.Hare.Grows.in.Manhattan.(1947).FS.DVDRip.DivX5
i3006 04 hare.grows.in.manhattan 1947 . sharethefiles.com 012258 11 22 54  A.Hare.Grows.in.Manhattan.(1947).FS.DVDRip.DivX5

04-Hare.Grows.in.Manhattan(1947).avi  [68.39 Mb]
Thanks to Easy_Breath!

General
Complete name                    : D:\eMule\04-Hare.Grows.in.Manhattan(1947).[sharethefiles.com].avi
Format                           : AVI
Format/Info                      : Audio Video Interleave
File size                        : 68.4 MiB
Duration                         : 8mn 22s
Overall bit rate                 : 1 141 Kbps

Video
ID                               : 0
Format                           : MPEG-4 Visual
Format settings, BVOP            : Yes
Format settings, QPel            : No
Format settings, GMC             : No warppoints
Format settings, Matrix          : Default (H.263)
Muxing mode                      : Packed bitstream
Codec ID                         : DX50
Codec ID/Hint                    : DivX 5
Duration                         : 8mn 22s
Bit rate                         : 1 024 Kbps
Width                            : 640 pixels
Height                           : 464 pixels
Display aspect ratio             : 1.379
Frame rate                       : 29.970 fps
Color space                      : YUV
Chroma subsampling               : 4:2:0
Bit depth                        : 8 bits
Scan type                        : Progressive
Compression mode                 : Lossy
Bits/(Pixel*Frame)               : 0.115
Stream size                      : 61.3 MiB (90%)
Title                            : Video
Writing library                  : DivX 5.2.1 Alpha (UTC 2004-09-08)

Audio
ID                               : 1
Format                           : MPEG Audio
Format version                   : Version 1
Format profile                   : Layer 3
Mode                             : Joint stereo
Mode extension                   : MS Stereo
Codec ID                         : 55
Codec ID/Hint                    : MP3
Duration                         : 8mn 22s
Bit rate mode                    : Variable
Bit rate                         : 128 Kbps
Channel(s)                       : 2 channels
Sampling rate                    : 44.1 KHz
Compression mode                 : Lossy
Stream size                      : 6.23 MiB (9%)
Alignment                        : Aligned on interleaves
Interleave, duration             : 26 ms (0.78 video frame)
Interleave, preload duration     : 117 ms
Title                            : Audio
Writing library                  : LAME3.92


_________________
You're new here? Then read The Guide!! :::…::: You don't want your posts trashed? Then read The Rules!!

========================================
A.Hare.Grows.in.Manhattan.(1947).FS.DVDRip.DivX5 Fast download
Alternative download: This download might also be available on Usenet. fast, safe and anonymous download up to 150GB from usenext 4free.


A.Hare.Grows.in.Manhattan.(1947).FS.DVDRip.DivX5
A.Hare.Grows.in.Manhattan. 1947 .FS.DVDRip.DivX5 Alternative Download Search

You must be logged in to post a comment.

contact us content remove