Login





Register | Lost your password?

Categories

Beautiful Equations (2010)

eD2k Links
Help |              
Beautiful.Equations.WS.PDTV.XviD.avi 466.25MB
466.25MB
(1Files)


Beautiful Equations

Quote:Artist and writer Matt Collings takes the plunge into an alien world of equations. He asks top scientists to help him understand five of the most famous equations in science, talks to Stephen Hawking about his equation for black holes and comes face-to-face with a particle of anti-matter.

Along the way he discovers why Newton was right about those falling apples and how to make sense of E=mc2. As he gets to grips with these equations he wonders whether the concept of artistic beauty has any relevance to the world of physics.

http://www.bbc.co.uk/programmes/b00wltbm

Complete name : Beautiful.Equations.WS.PDTV.XviD.avi
Format : AVI
Format/Info : Audio Video Interleave
File size : 466 MiB
Duration : 59mn 7s
Overall bit rate : 1 102 Kbps
Writing library : VirtualDub build 32839/release

Video
ID : 0
Format : MPEG-4 Visual
Format profile : Advanced Simple@L5
Format settings, BVOP : Yes
Format settings, QPel : No
Format settings, GMC : No warppoints
Format settings, Matrix : Default (H.263)
Codec ID : XVID
Codec ID/Hint : XviD
Duration : 59mn 7s
Bit rate : 962 Kbps
Width : 640 pixels
Height : 352 pixels
Display aspect ratio : 16:9
Frame rate : 25.000 fps
Color space : YUV
Chroma subsampling : 4:2:0
Bit depth : 8 bits
Scan type : Progressive
Bits/(Pixel*Frame) : 0.171
Stream size : 407 MiB (87%)
Writing library : XviD 1.2.1 (UTC 2008-12-04)

Audio
ID : 1
Format : MPEG Audio
Format version : Version 1
Format profile : Layer 3
Mode : Joint stereo
Codec ID : 55
Codec ID/Hint : MP3
Duration : 59mn 7s
Bit rate mode : Variable
Bit rate : 128 Kbps
Nominal bit rate : 135 Kbps
Channel(s) : 2 channels
Sampling rate : 48.0 KHz
Stream size : 54.0 MiB (12%)
Alignment : Aligned on interleaves
Interleave, duration : 24 ms (0.60 video frame)
Interleave, preload duration : 535 ms
Writing library : LAME3.98r
Encoding settings : -m j -V 4 -q 3 -lowpass 17 –abr 135

========================================
Beautiful Equations (2010) Fast download
Alternative download: This download might also be available on Usenet. fast, safe and anonymous download up to 150GB from usenext 4free.



Beautiful Equations 2010 Alternative Download Search

You must be logged in to post a comment.

contact us content remove